fastshare
Michael Jackson's This is it (2009)
Zapnout statistiky
Poslední návštěva: pát led 19, 2018 7:16 am Právě je pát led 19, 2018 7:16 am





Všechny časy jsou v UTC




 [ Příspěvků: 3 ] 
 Michael Jackson's This is it (2009) 
Autor Zpráva
Sergeant
Sergeant

Registrován: pát úno 20, 2009 7:40 pm
Příspěvky: 112
Příspěvek Michael Jackson's This is it (2009)

Michael Jackson's This is it (2009) [1080p Bluray] / EN + CZ titulky


Michael Jackson's This is it (2009)

Michael Jackson's This is it (2009)
Michael Jackson's This is it (2009)
Michael Jackson's This is it (2009)

Michael Jackson's This is it (2009)

Michael Jackson's This is it (2009) 8,74 GB
Citace:
"Format : Matroska
Format version : Version 2
File size : 8.74 GiB
Duration : 1h 51mn
Overall bit rate : 11.2 Mbps
Encoded date : UTC 2009-12-23 16:45:14
Writing application : mkvmerge v3.0.0 ('Hang up your Hang-Ups') built on Dec 12 2009 15:20:35
Writing library : libebml v0.7.9 + libmatroska v0.8.1

Video
ID : 1
Format : AVC
Format/Info : Advanced Video Codec
Format profile : [email protected]
Format settings, CABAC : Yes
Format settings, ReFrames : 4 frames
Codec ID : V_MPEG4/ISO/AVC
Duration : 1h 51mn
Bit rate : 9 740 Kbps
Width : 1 920 pixels
Height : 1 080 pixels
Display aspect ratio : 16:9
Frame rate : 23.976 fps
Color space : YUV
Chroma subsampling : 4:2:0
Bit depth : 8 bits
Scan type : Progressive
Bits/(Pixel*Frame) : 0.196
Stream size : 7.40 GiB (85%)
Writing library : x264 core 80 r1376 3feaec2
Encoding settings : cabac=1 / ref=4 / deblock=1:0:0 / analyse=0x3:0x133 / me=umh / subme=7 / psy=1 / psy_rd=1.0:0.0 / mixed_ref=1 / me_range=16 / chroma_me=1 / trellis=1 / 8x8dct=1 / cqm=0 / deadzone=21,11 / fast_pskip=1 / chroma_qp_offset=-2 / threads=12 / sliced_threads=0 / nr=0 / decimate=1 / mbaff=0 / constrained_intra=0 / bframes=3 / b_pyramid=2 / b_adapt=2 / b_bias=0 / direct=3 / wpredb=1 / wpredp=2 / keyint=250 / keyint_min=25 / scenecut=40 / rc=2pass / mbtree=0 / bitrate=9740 / ratetol=1.0 / qcomp=0.60 / qpmin=10 / qpmax=51 / qpstep=4 / cplxblur=20.0 / qblur=0.5 / ip_ratio=1.40 / pb_ratio=1.30 / aq=1:1.00
Language : English

Audio
ID : 2
Format : DTS
Format/Info : Digital Theater Systems
Codec ID : A_DTS
Duration : 1h 51mn
Bit rate mode : Constant
Bit rate : 1 510 Kbps
Channel(s) : 6 channels
Channel positions : Front: L C R, Side: L R, LFE
Sampling rate : 48.0 KHz
Bit depth : 24 bits
Compression mode : Lossy
Stream size : 1.17 GiB (13%)
Language : English

Text
ID : 3
Format : UTF-8
Codec ID : S_TEXT/UTF8
Codec ID/Info : UTF-8 Plain Text
Language : English

"

Michael Jackson's This is it (2009)

+3% WinRAR recovery

1.staci kliknut na tlacitko Click`n`Load .........Michael Jackson's This is it (2009)
2.linky sa Vam do Jdownloader alebo Mipony(ak ich nemame, treba si doinstalovat, spustit)
3.stahujete zo servera share-online, pripadne Filefactory :)


pát led 20, 2012 10:02 pm Profil
Sergeant
Sergeant

Registrován: pát úno 20, 2009 7:40 pm
Příspěvky: 112
Příspěvek Re: Michael Jackson's This is it (2009)

linky reuploadnute 1gb party


stř úno 08, 2012 10:38 pm Profil
Captain
Captain
Uživatelský avatar

Registrován: čtv srp 06, 2009 7:04 am
Příspěvky: 269
Příspěvek Re: Michael Jackson's This is it (2009)

This.Is.It.1080p.BluRay.x264-CROSSBOW
Re: Michael Jackson's This is it (2009)

Re: Michael Jackson's This is it (2009)




Re: Michael Jackson's This is it (2009)


ned led 27, 2013 12:54 pm Profil
Zobrazit příspěvky za předchozí:  Seřadit podle  
 [ Příspěvků: 3 ] 

Všechny časy jsou v UTC


Nemůžete zakládat nová témata v tomto fóru
Nemůžete odpovídat v tomto fóru
Nemůžete upravovat své příspěvky v tomto fóru
Nemůžete mazat své příspěvky v tomto fóru
Nemůžete přikládat soubory v tomto fóru









StahovaniZaSMS Pizza Modena MP3 free download